Скачать через торрент Мой сосед Тоторо Tonari no Totoro бесплатно Аниме Все серии на русском torrent

Статистика раздачи
Размер:  4.38 GB   |    Зарегистрирован:  11 месяцев   |    .torrent скачан:  39 раз   |   
Раздают:  1  
   
загрузка...
 
Автор Сообщение

Galfimbul

avatar Galfimbul


Мой сосед Тоторо / Tonari no Totoro / My Neighbor Totoro

Страна: Япония
Год выпуска: 1988
Жанр: приключения, комедия, фэнтези
Тип: Movie
Продолжительность: 01:26:18
Режиссер: Хаяо Миядзаки / Hayao Miyazaki
Студия: Tokuma Japan Communications Co. Ltd., Studio Ghibli, Nibariki

Описание: Это история о том, как сестры Сацуки и Мэй встречают духа-хранителя леса (бога местной земли) То́торо. Семья переехала в деревню, и девочки начинают открывать для себя новый мир — деревенский дом, окрестности, природу. Дом настолько старый, что близок к разрушению. В нём даже водятся духи — чёрные чернушки, сусуватари. Мать семейства находится в больнице, и на время её болезни вся работа по дому ложится на плечи отца и старшей дочери Сацуки. Вскоре непоседливая младшая сестра Сацуки, Мэй, встречает маленького лесного духа, который, сам того не желая, приводит её к более крупному духу, а потом и к гигантскому То́торо — хранителю леса, живущему неподалёку. Позже и Сацуки знакомится с Тоторо, когда девочки ждут отца на автобусной остановке. При этом Тоторо, как и другие сказочные создания в мультфильме, предпочитает не попадаться на глаза взрослым, и контактирует только с детьми.

Тоторо дарит девочкам небольшой свёрток из бамбуковых листьев, в котором лежат семена. Девочки высаживают семена в огороде, а ночью Тоторо помогает им прорасти. На следующий день из больницы сообщают, что мама не сможет вернуться домой на выходные. Расстроенная Мэй ссорится со своей старшей сестрой и сама отправляется к матери, но по дороге теряется. Обеспокоенная Сацуки и жители окрестности везде ищут её, но безуспешно. Тогда Тоторо по просьбе Сацуки помогает её разыскать. Котобус относит девочек в больницу Ситикокуяма, и девочки видят, что с мамой всё в порядке. Во время финальных титров показано, как мама выздоравливает и приезжает в новый дом, а Мэй идет в школу и заводит новых друзей.

Качество: DVD9
Формат экрана: 16:9
Система / Разрешение: NTSC (720x480)
Средний битрейт: 6437
Аудио: Pyccкuй (Dolby AC3, 2 ch, 192Kbps) - А.Гаврилов
Аудио 2: Pyccкuй (Dolby AC3, 2 ch, 192Kbps) - Неизвестный
Аудио 3: Японский (Dolby AC3, 2 ch, 192Kbps)
Язык субтитров: русский
Язык субтитров: английский
ОбщееПолное имя : H:\ANIME\Мой сосед Тоторо (1988 DVD9)\VIDEO_TS\VTS_01_4.VOBФормат : MPEG-PSРазмер файла : 1024 МбайтПродолжительность : 20 м. 0 с.Режим общего битрейта : ПостоянныйОбщий поток : 7156 Кбит/сек

ВидеоИдентификатор : 224 (0xE0)Формат : MPEG VideoВерсия формата : Version 2Профиль формата : Main@MainНастройки формата : CustomMatrix / BVOPПараметр BVOP формата : ДаПараметр матрицы формата : ВыборочнаяПараметр GOP формата : M=2, N=8Структура изображения : FrameПродолжительность : 20 м. 0 с.Вид битрейта : ПостоянныйБитрейт : 6437 Кбит/секМаксимальный битрейт : 8000 Кбит/секШирина : 720 пикселейВысота : 480 пикселейСоотношение сторон : 16:9Частота кадров : 29,970 (30000/1001) кадров/секСтандарт вещания : NTSCЦветовое пространство : YUVСубдискретизация насыщенности : 4:2:0Битовая глубина : 8 битТип развёртки : ЧересстрочнаяПорядок развёртки : Верхнее поле первоеМетод сжатия : С потерямиБит/(Пиксели*Кадры) : 0.622Временной код первого кадра : 01:58:50:20Оригинал временного кода : Group of pictures headerGOP, открыто/закрыто : ЗакрытоРазмер потока : 921 Мбайт (90%)

Аудио #1Идентификатор : 189 (0xBD)-128 (0x80)Формат : AC-3Формат/Информация : Audio Coding 3Режим смешивания : DVD-VideoПродолжительность : 20 м. 0 с.Вид битрейта : ПостоянныйБитрейт : 192 Кбит/секКаналы : 2 каналаРасположение каналов : Front: L RЧастота : 48,0 КГцЧастота кадров : 31,250 кадров/сек (1536 SPF)Битовая глубина : 16 битМетод сжатия : С потерямиЗадержка видео : -53 мс.Размер потока : 27,5 Мбайт (3%)ServiceKind/String : Complete Main

Аудио #2Идентификатор : 189 (0xBD)-129 (0x81)Формат : AC-3Формат/Информация : Audio Coding 3Режим смешивания : DVD-VideoПродолжительность : 20 м. 0 с.Вид битрейта : ПостоянныйБитрейт : 192 Кбит/секКаналы : 2 каналаРасположение каналов : Front: L RЧастота : 48,0 КГцЧастота кадров : 31,250 кадров/сек (1536 SPF)Битовая глубина : 16 битМетод сжатия : С потерямиЗадержка видео : -53 мс.Размер потока : 27,5 Мбайт (3%)ServiceKind/String : Complete Main

Аудио #3Идентификатор : 189 (0xBD)-130 (0x82)Формат : AC-3Формат/Информация : Audio Coding 3Режим смешивания : DVD-VideoПродолжительность : 20 м. 0 с.Вид битрейта : ПостоянныйБитрейт : 192 Кбит/секКаналы : 2 каналаРасположение каналов : Front: L RЧастота : 48,0 КГцЧастота кадров : 31,250 кадров/сек (1536 SPF)Битовая глубина : 16 битМетод сжатия : С потерямиЗадержка видео : -53 мс.Размер потока : 27,5 Мбайт (3%)ServiceKind/String : Complete Main
Перевод А.Гаврилов в первые на сайте


Трекер:  [ 25-Ноя-2017 15:30 ]

  

Скачать .torrent

Размер .torrent файла 12 KB


Размер: 4.38 GB
Хэш (hash) релиза: b87ec213c1d337f6b0d5d77d199a7be5fbf65827
Подписка на обновления:

Торренты, похожие на Мой сосед Тоторо Tonari no Totoro скачать торрент

Форум Название Автор Размер S L Добавлен
Аниме | Blu-Ray и BDRemux ·· Мой сосед Тоторо / Tonari no Totoro / My Neighbor Totoro [Movie] [Без хардсаба] [RUS (int), JAP+SUB] [1988 г., приключения, комедия, сказка, драма, Blu-ray] [1080p] Galfimbul 4854403574645.21 GB 0 0 1390670498

20:21

25-Янв-14

Аниме | HD Rips ·· Мой сосед Тоторо / Tonari no Totoro / My Neighbor Totoro (Хаяо Миядзаки / Hayao Miyazaki) [Movie] [Без хардсаба] [RUS/JAP+SUB] [1988, сказка, семейный, детский, HDTV] [1080i] Bot 97971038569.12 GB 0 0 1286480962

22:49

7-Окт-10

Аниме | Rips ·· Мой сосед Тоторо / My Neighbor Totoro / Tonari no Totoro [Movie] [без хардсаба] [RUS(ext), ENG, JAP+SUB] [1988 г., приключения, комедия, сказка, драма, BDRip-AVC] L 28013395592.61 GB 0 0 1362399705

15:21

4-Мар-13

Аниме | Rips ·· Мой сосед Тоторо / My Neighbor Totoro / Tonari no Totoro (Миядзаки Хаяо) [Movie] [без хардсаба] [RUS(int), JAP+SUB] [1988 г., приключения, комедия, сказка, драма, BDRip] [HWP] Galfimbul 21422741042 GB 0 0 1343362860

07:21

27-Июл-12

Аниме | Rips ·· Мой сосед Тоторо / My Neighbor Totoro / Tonari no Totoro (Миядзаки Хаяо) [Movie] [без хардсаба] [RUS(int), JAP+SUB] [1988 г., приключения, комедия, сказка, драма, BDRip] [HWP] Galfimbul 21423068722 GB 0 0 1343362920

07:22

27-Июл-12

Аниме | Blu-Ray и BDRemux ·· Мой сосед Тоторо / My Neighbor Totoro / Tonari no Totoro (Миядзаки Хаяо) [Movie] [без хардсаба] [RUS(int), ENG, JAP+SUB] [1988 г., приключения, комедия, сказка, драма, BDRemux] [1080p] Galfimbul 2565664229223.89 GB 0 0 1342716960

19:56

19-Июл-12

Аниме | DVD ·· Мой сосед Тоторо / My Neighbor Totoro / Tonari no Totoro [Movie][1988][приключения, комедия, сказка, драма][2xDVD9][Профессиональный(JAP+SUB)] Yuki-san 1282746982411.95 GB 0 0 1294237870

17:31

5-Янв-11

Еще никто не оставлял запись к записи скачать торрент Мой сосед Тоторо Tonari no Totoro . Будь первым!

!Обратная связь
Domestic na Kanojo chap 118 | Documentary | 45.eminentromanoffline9.8 / 10 102orders completedRequest writerView profileI am an essay writer whose aim is always to give the best solution to my clients. Once hired to offer my paper writing services to a client, I dedicate my time to conducting all of the necessary research on the topic, so as to come up with the best and the most unique solutions to the problems.